[wifeysworld.com] Wifey – Lost Vegas Footage [720p] Size: 406.89 MB

Desciription:

if you can’t see in the desciription pictures (mostly http//jerking.empornium or like this) first selected pic. link with the mouse

later copy and past in the browser address line.

https://jerking.empornium.ph/images/2016/08/15/lostvegas049.jpg

**.**

It’s Wifey’s World, so of course you’re going to get Wifey’s amazing tits, and she’s going to blow Hubby.

According to her blog on the Wifeysworld.com website, Wifey really did meet up with another guy in Vegas. Apparently they do, occasionally, shoot videos with guys other than Hubby. So the story on this video is that Wifey was so turned on by the extra-curricular activities that she had to get herself off, again. First she blows Hubby in a Las Vegas hotel room. Then she sits in front of a full-length mirror and uses a vibrator to masturbate to orgasam.

From the website:

Sometimes we get lucky- more footage we thought had been misplaced showed up on a stray SD card in the bottom of one of Hub’s backpacks!

This footage is pretty interesting because it takes place the day after I had a little (actually a LOT) of “naughty” fun that I had posted in the blog with a particularly large black penis and myself, lol.

So needless to say my little pussy was still sore (did you see the size of that fucking schlong?!) but horny as hell from the action I’d had. Hub was still horny also even though he nailed me like a maniac when he got into town lol.

You might be able to guess what I was thinking about while I masturbated in front of the mirror- yes, me being a little slut that week!

Hope you enjkoy 🙂

https://jerking.empornium.ph/images/2016/08/15/lostvegas041.md.jpg https://jerking.empornium.ph/images/2016/08/15/lostvegas010.md.jpg

https://jerking.empornium.ph/images/2016/08/15/lostvegas027.md.jpg https://jerking.empornium.ph/images/2016/08/15/lostvegas049.md.jpg

***.***

Wifey (Sandra Otterson)

Hubby (Kevin Otterson)

****.****

https://jerking.empornium.ph/images/2016/08/15/screens-lostvegas.md.jpg

General

Complete name : lostvegas.mp4

Format : MPEG-4

Format profile : Base Media

Codec ID : isom (isom/iso2/avc1/mp41)

File size : 402 MiB

Duration : 10mn 56s

Overall bit rate : 5 137 Kbps

Movie name : August 12th 2016 Vegas Stash

Album/Performer : KWP

Performer : KWP

Description : This video is about August 12th 2016 Vegas Stash

Encoded date : UTC 1904-01-01 00:00:00

Tagged date : UTC 1904-01-01 00:00:00

Writing application : Lavf56.15.102

Video

ID : 1

Format : AVC

Format/Info : Advanced Video Codec

Format profile : Baseline@L3.1

Format settings, CABAC : No

Format settings, ReFrames : 3 frames

Codec ID : avc1

Codec ID/Info : Advanced Video Coding

Duration : 10mn 56s

Bit rate : 5 000 Kbps

Width : 1 280 pixels

Height : 720 pixels

Display aspect ratio : 16:9

Frame rate mode : Constant

Frame rate : 30.000 fps

Color space : YUV

Chroma subsampling : 4:2:0

Bit depth : 8 bits

Scan type : Progressive

Bits/(Pixel*Frame) : 0.181

Stream size : 387 MiB (96%)

Writing library : x264 core 142

Encoding settings : cabac=0 / ref=3 / deblock=1:0:0 / analyse=0x1:0x111 / me=hex / subme=7 / psy=1 / psy_rd=1.00:0.00 / mixed_ref=1 / me_range=16 / chroma_me=1 / trellis=1 / 8x8dct=0 / cqm=0 / deadzone=21,11 / fast_pskip=1 / chroma_qp_offset=-2 / threads=12 / lookahead_threads=2 / sliced_threads=0 / nr=0 / decimate=1 / interlaced=0 / bluray_compat=0 / constrained_intra=0 / bframes=0 / weightp=0 / keyint=250 / keyint_min=25 / scenecut=40 / intra_refresh=0 / rc_lookahead=40 / rc=abr / mbtree=1 / bitrate=5000 / ratetol=1.0 / qcomp=0.60 / qpmin=0 / qpmax=69 / qpstep=4 / ip_ratio=1.40 / aq=1:1.00

Encoded date : UTC 1904-01-01 00:00:00

Tagged date : UTC 1904-01-01 00:00:00

Audio

ID : 2

Format : AAC

Format/Info : Advanced Audio Codec

Format profile : LC

Codec ID : 40

Duration : 10mn 56s

Duration_LastFrame : -18ms

Bit rate mode : Constant

Bit rate : 192 Kbps

Channel(s) : 2 channels

Channel positions : Front: L R

Sampling rate : 44.1 KHz

Frame rate : 43.066 fps (1024 spf)

Compression mode : Lossy

Stream size : 15.0 MiB (4%)

Language : English

Default : Yes

Alternate group : 1

Encoded date : UTC 1904-01-01 00:00:00

Tagged date : UTC 1904-01-01 00:00:00

Video InFo

No Rar Password

Buy Premium Before Download To Get Resumable Support & Max Speed

0 Comments

Leave a Reply

Your email address will not be published. Required fields are marked *